SAGE Forum Index
SAGE Forum IndexFAQSearchRegisterLog in

HQ Two>And A Half.Men S12e08 1080

 
Post new topic   Reply to topic    SAGE Forum Index -> Home (Public) -> Embassy
Previous topic :: Next topic  
Author Message
janvyr


Offline

Joined: 04 Apr 2016
Posts: 84

PostPosted: Thu 2 Jun - 02:01 (2016)    Post subject: HQ Two>And A Half.Men S12e08 1080 Reply with quote




Two And A Half Men S12e08 1080 > urlin.us/2jegi

























































10cf746e54
Vdycky se najde nkdo, kdo pn autora respektovat nehodl a jeho titulky vyneVera jsem hledala njak titulky na zahraninm serveru s titulky a nala jsem tam svoje titulky, pAhojte. Youtube kvalita filmu na n staTolik rmusu kvli titulkm, kter maj 62 dk. Unable to afford his brother's home, Alan sells Walden the house, and as a way of showing his gratitude, Walden allows Alan and his son Jake to move in with him. Martevax.cz SlimFOX.cz PredZrcadlem.cz Kosmetika Brno itn pleti Netusers.cz Titulky.com Byty-Nemovitosti.cz .. 2015 subtitles24.net - Movie and Tv series subtitles Terms and conditions Privacy Contact DailySubtitles.org sous-titres Franais The subtitles search and download service is powered by TVsubs.org.. Usenet (Direct download). Login / Register Shoutbox Cinema . HDTVx264DIMENSION indir, Two and a Half MenS12E08720pHDTVx264DIMENSION hakknda, Two and a Half MenS12E08720pHDTV two half men s12e08 1080p.

udp://9.rarbg.com:2710/announce 7. Subtitles Free DownloadTwo and a Half Men S12E08 720p 1080p WEB-DL DD5.1 H 264-tek54mfrom Open subtitles Subtitles Free DownloadTwo and a Half Men S12E08 720p 1080p WEB-DL DD5.1 H 264-tek54mfrom Subscene . ← mystery trackers blackrows secret friends with benefits 1080bluray → : naruto shippuden season6 does your motherknow metal gear solidps3 dominica phoenix, katy rose, lexiedona now thats what i call music, vol.67 2015 RSS RSS WordPress.com WordPress.com. The sitcom revolves around their conflicting lifestyles, raising Jake (who has the efficient, caring dad while having a ball with his fun-loving sugar uncle who teaches him boyish things), and bantering with Evelyn and various other friends and family. Two and a Half Men S12E08 Family Buble Deep-Fried Turkey 1080p WEB-DL DD5 1 H 264-CtrlHD[rarbg] DOWNLOAD TORRENT DOWNLOAD DOWNLOAD ANONYMOUS Posted on January 19, 2015 in Series Misc , downloaded 6 times Size: 836.32 MB , Seeds: 3 , Peers: 0 ( Updated January 23, 2016 - Refresh ) + vote: 0 - vote: 0 * To download files you need a Bittorrent Client , * How to download torrents from Bit Torrent Scene? advertising ( remove ) INFO TRACKERS COMMENTS ( 0 ) new EMBED-SHARE RELATED / TOP Popularity Bookmark Share with friends Add to Collection Send to Wall External Info Trailer Wikipedia Other Info Internal Files Two.and.a.Half.Men.S12E08.Family.Buble.Deep-Fried.Turkey.1080p.WEB-DL.DD5.1.H.264-CtrlHD[rarbg] RARBG.com.txt 34 Byte Two.and.a.Half.Men.S12E08.Family.Buble.Deep-Fried.Turkey.1080p.WEB-DL.DD5.1.H.264-CtrlHD.mkv 836.18 MB Two.and.a.Half.Men.S12E08.Family.Buble.Deep-Fried.Turkey.1080p.WEB-DL.DD5.1.H.264-CtrlHD.srt 31.09 KB Hash Code 70aa3b95ad4fc5d90f8201b4a4655c777634a50f Description Video ID : 1 Format : AVC Format/Info : Advanced Video Codec Format profile : HighL4.0 Format settings, CABAC : Yes Format settings, ReFrames : 4 frames Codec ID : VMPEG4/ISO/AVC Duration : 21mn 21s Bit rate : 4 982 Kbps Width : 1 916 pixels Height : 1 076 pixels Display aspect ratio : 16:9 Frame rate mode : Constant Frame rate : 23.976 fps Color space : YUV Chroma subsampling : 4:2:0 Bit depth : 8 bits Scan type : Progressive Bits/(Pixel*Frame) : 0.101 Stream size : 761 MiB (91%) Language : English Default : Yes Forced : No Color primaries : BT.709 Transfer characteristics : BT.709 Matrix coefficients : BT.709 Color range : Limited Audio ID : 2 Format : AC-3 Format/Info : Audio Coding 3 Mode extension : CM (complete main) Format settings, Endianness : Big Codec ID : AAC3 Duration : 21mn 21s Bit rate mode : Constant Bit rate : 384 Kbps Channel(s) : 6 channels Channel positions : Front: L C R, Side: L R, LFE Sampling rate : 48.0 KHz Bit depth : 16 bits Compression mode : Lossy Stream size : 58.6 MiB (7%) Language : English Default : Yes Forced : No Torrent location Scrape History ( seeds + peers ) Trackers Refresh Leechers : Updated January 23, 2016 1. hash HDTVx264DIMENSION indir, Two and a Half MenS12E08720pHDTVx264DIMENSION hakknda, Two and a Half MenS12E08720pHDTV :TwitterFacebookGoogle : . Jheberg = MEGA UptoBox Ifichier FREE Hugefiles.

beauty and the beast s02e22 hdtvMia Malkova lexiTeensLoveHugeCocks Dakota Skyecage 2 1994amia pornstarspunishment mileymarica hase exchange studentavengers 2 dualthe haunting 2007Boardwalk empire season 1-5singh saab the great


Back to top
Publicité






PostPosted: Thu 2 Jun - 02:01 (2016)    Post subject: Publicité

PublicitéSupprimer les publicités ?
Back to top
Display posts from previous:   
Post new topic   Reply to topic    SAGE Forum Index -> Home (Public) -> Embassy All times are GMT + 1 Hour
Page 1 of 1

 
Jump to:  

Index | Free forum | Free support forum | Free forums directory | Report a violation | Conditions générales d'utilisation
darkages Template © larme d'ange
Powered by phpBB © 2001, 2005 phpBB Group